Alternatywy 4 (1983) 1080i.Blu-Ray.AVC.LPCM / Film Polski » HQSite.org - Twoje miejsce w sieci.Free download.
» » » Alternatywy 4 (1983) 1080i.Blu-Ray.AVC.LPCM / Film Polski

Alternatywy 4 (1983) 1080i.Blu-Ray.AVC.LPCM / Film Polski

BluRay , 3D , 4K UHD
16 Kwiecień 2019

Alternatywy 4 (1983) 1080i.Blu-Ray.AVC.LPCM / Film Polski

Alternatywy 4 (1983) 1080i.Blu-Ray.AVC.LPCM / Film Polski

Gatunek: Komedia
Produkcja: Polska
Premiera: 1983
Reżyseria: Stanisław Bareja
Obsada: Roman Wilhelmi, Witold Pyrkosz, Kazimierz Kaczor, Jerzy Kryszak, Wiełsaw Gołas, Stanisława Celińska, Wojciech Pokora, Mieczysław Voit, Janusz Gajos, Jerzy Bończak, Halina Kowalska, Bronisław Pawlik, Jerzy Turek, Bożena Dykiel, Zofia Czerwińska, Hanna Bieniuszkiewicz, Elżbieta Jagielska, Barbara Rachwalska, Bolesław Płotnicki, Ewa Ziętek, Danuta Kowalska, Krystyna Tkacz, Gustaw Lutkiewicz, Marek Frąckowiak, Jan Kobuszewski




Opis:

Komedia obyczajowa o perypetiach mieszkańców bloku na warszawskim Ursynowie, zabarwiona zjadliwą ironią i kpiną z peerelowskiej rzeczywistości, posuniętą aż do surrealistycznej satyry. Przybyły z Pułtuska prowincjonalny dygnitarz partyjny Stanisław Anioł obejmuje stanowisko gospodarza domu. Szybko ujawnia się jako przedsiębiorczy organizator życia społeczności blokowej. Kreuje się na zwierzchnika i arbitra we wszystkich sprawach, nawet dotyczących życia osobistego sąsiadów. Wydaje nakazy i zakazy, zwołuje zebrania, dręczy mieszkańców czynami społecznymi. Zdesperowani lokatorzy nie wytrzymują tyranii znienawidzonego ciemiężcy i mobilizują się przeciwko jego samowoli. W decydującej chwili przemieniają swój blok w ruinę pełną degeneratów.
Anioł, ostatecznie skompromitowany i wyśmiany, odczuwa skutki dywersyjnej działalności niesubordynowanych mieszkańców. Ale, jak się wkrótce okazuje, zostaje administratorem resocjalizacji osiedla.




Release:


DISC INFO:

Disc Title: Alternatywy_4_BD1
Disc Size: 41 121 174 139 bytes
Protection: AACS
BD-Java: No
Extras: 50Hz Content
BDInfo: 0.5.8

PLAYLIST REPORT:

Name: 00010.MPLS
Length: 2:43:32.199 (h:m:s.ms)
Size: 40 761 311 232 bytes
Total Bitrate: 33,23 Mbps

VIDEO:

Codec Bitrate Description
----- ------- -----------
MPEG-4 AVC Video 29980 kbps 1080i / 25 fps / 16:9 / High Profile 4.1

AUDIO:

Codec Language Bitrate Description
----- -------- ------- -----------
LPCM Audio Polish 1536 kbps 2.0 / 48 kHz / 1536 kbps / 16-bit

SUBTITLES:

Codec Language Bitrate Description
----- -------- ------- -----------
Presentation Graphics Polish 28,840 kbps

FILES:

Name Time In Length Size Total Bitrate
---- ------- ------ ---- -------------
00001.M2TS 0:00:00.000 0:59:40.360 14 875 422 720 33 238
00002.M2TS 0:59:40.360 0:52:07.600 12 988 440 576 33 223
00003.M2TS 1:51:47.959 0:51:44.239 12 897 447 936 33 238



Screeny



Płyta Blu-Ray nr 1

Aby zobaczyć ukryty tekst, musisz być zalogowany. Jeżeli nie masz konta, zarejestruj się!


Płyta Blu-Ray nr 2

Aby zobaczyć ukryty tekst, musisz być zalogowany. Jeżeli nie masz konta, zarejestruj się!


Płyta Blu-Ray nr 3
Aby zobaczyć ukryty tekst, musisz być zalogowany. Jeżeli nie masz konta, zarejestruj się!


0
60
tb7.pl - Pobieraj z Catshare, Rapidu, Fileshark i innych 10GB/24H! Płatności SMS oraz e-przelewem!

Komentarze 0
Dodaj komentarz
Informacja
Członkowie grupy Gość nie posiadają uprawnień do komentowania tego artykułu.